media.bandthewest
» » Cozy Cole, Coleman Hawkins, J.C. Heard, T. Young - Jazz 44

Cozy Cole, Coleman Hawkins, J.C. Heard, T. Young - Jazz 44 flac album

Cozy Cole, Coleman Hawkins, J.C. Heard, T. Young - Jazz 44 flac album
  • Performer Cozy Cole
  • Title Jazz 44
  • Country France
  • Style Bop, Swing
  • Other formats AHX VOX AAC MP1 AU MPC AC3
  • Genre Jazz
  • Size MP3 1945 mb
  • Size FLAC 1377 mb
  • Rating: 4.3
  • Votes: 230

Cozy Cole Starring Coleman Hawkins, Ben Webster - Concerto For Cozy (Album). Cozy Cole, Marty Napoleon. Red Allen, Kid Ory & Jack Teagarden With . Higginbotham, Buster Bailey & Cozy Cole - At Newport ‎(LP, Album, Mono, RE). Verve Records.

Coleman Randolph Hawkins (November 21, 1904 – May 19, 1969), nicknamed "Hawk" and sometimes "Bean", was an American jazz tenor saxophonist. One of the first prominent jazz musicians on his instrument, as Joachim E. Berendt explained: "there were some tenor players before him, but the instrument was not an acknowledged jazz horn". Hawkins biographer John Chilton described the prevalent styles of tenor saxophone solos prior to Hawkins as "mooing" and "rubbery belches.

Henry Allen-Coleman Hawkins скачать mp3 в хорошем качестве, либо слушайте песню Henry Allen-Coleman Hawkins - Dark Clouds, Henry Allen-Coleman Hawkins - Someday Sweetheart, Henry Allen-Coleman Hawkins - Ain'tcha Got Music, Henry Allen & Coleman Hawkins & Their Orchestra - Ain't Cha Got Music, а также рингтоны на звонок и все новые треки. Henry Red Allen, Coleman Hawkins, . Higginbotham, Milt Hinto, Lou Stein, Sol Yaged & Cozy Cole – Battle Hymn Of The Republic. Higginbotham, Milt Hinton, Coleman Hawkins, Lou Stein, Sol Yaged & Cozy Cole – When The Saints Go Marching In. 3:02. Henry Allen & Coleman Hawkins & Their Orchestra – Dark Clouds.

Soul is an album by saxophonist Coleman Hawkins which was recorded in 1958 and released on the Prestige label. Then 52, Hawkins uses a typically young rhythm section and plays melodically on a variety of originals and standards". All compositions by Coleman Hawkins except as indicated. I Hadn't Anyone Till You" (Ray Noble) - 4:34. Groovin'" (Kenny Burrell) - 5:43.

Select Rank Below 1 2 3 4 5 6 7 8 9 10 11 12 13 14 15 16 17 18 19 20 21 22 23 24 25 26 27 28 29 30 31 32 33 34 35 36 37 38 39 40 41 42 43 44 45 46 47 48 49 50 51 52 53 54 55 56. R&B Charts. Select Chart Below Top 100 Rock & Roll R&B Country Brazil. Select a Year .

00:00:00 TRACK 02 AUDIO TITLE "Sed Blues" PERFORMER "BUDDY TATE, COLEMAN HAWKINS" FLAGS DCP INDEX 01 07:32:12 TRACK 03 AUDIO TITLE "Blues By Five" PERFORMER "BUDDY TATE, COLEMAN HAWKINS" FLAGS DCP INDEX 01 14:38:58 TRACK 04 AUDIO TITLE "Bottle It" PERFORMER "BUDDY TATE, COLEMAN HAWKINS" FLAGS DCP INDEX 01 20:49:18 TRACK 05 AUDIO TITLE "Walk. Лидеры на этих девяти альбомах: кларнетист Buster Bailey, тромбонист Dicky Wells, тенор-саксофонисты Coleman Hawkins, Buddy Tate и Budd Johnson, пианисты Earl Hines и Billy Strayhorn, ударник Cozy Cole.

Cozy Cole - Concerto For Cozy (03-13-44) 02:55. Cozy Cole - Flat Rock (05-01-44) 02:57. Cozy Cole - Jam Session (09-18-44) 03:06. Cozy Cole - Talk To Me (03-13-44) 03:13. Cozy Cole - Ol' Man River (05-01-44) 02:56. Cozy Cole - Jump Street (06-14-44) 02:57. Joe Thomas, Johnny Guarnieri, Billy Taylor& Cozy Cole) 02:53. Pennies from Heaven (feat. Higginbotham, Henry "Red" Allen, Milt Hinton, Lou Stein, Sol Yaged & Cozy Cole - Toddle 06:53 Jazz Combo Cats. Жорж Бизе, Cozy Cole - Dat's Love 03:15 The Masters of Jazz: 33 Best of Mezz Mezzrow & Cozy Cole. Жорж Бизе, Cozy Cole - Dat's Love 03:15 Jazz Foundations Vol. 17.

Artist: Coleman Hawkins. Album: Live In New York 1965 At The Village Vanguard (Digitally Remastered), 2011. Has been played on. Switzerland 2. Jazz Ascona Radio. Coleman Hawkins quotes

COZY COLE: Look Here US C-6000, Continental Jazz 78 Coleman Hawkins, Tiny Grimes. 4h. COLEMAN HAWKINS: My Ideal, Mop Mop US Commodore 548 Jazz 78 E- Cootie Williams. COLEMAN HAWKINS Orch 1940 J C Heard Sandy Williams LP Lawrence Lucie.

Tracklist

A1 Cozy Cole Look Here
A2 Cozy Cole I Don't Stand A Ghost Of A Chance
A3 Cozy Cole Take It On Back
A4 Cozy Cole The Beat
A5 Cozy Cole Comes The Don
A6 Cozy Cole When Day Is Done
A7 Cozy Cole Willow Weep For Me
A8 Cozy Cole Memories Of You
B1 Coleman Hawkins Thanks For The Memory
B2 J.C. Heard Herad But Not Seen
B3 J.C. Heard The Walk
B4 J.C. Heard Bouncing For Barney
B5 T. Young* Sorta Kinda
B6 T. Young* Seventh Avenue

Companies, etc.

  • Printed By – A.R.E.A.C.E.M.

Credits

  • Alto Saxophone – C. Parker* (tracks: B5, B6)
  • Bass – A. Hall* (tracks: B5, B6), Al McKibbon (tracks: B2 to B4), O. Pettiford* (tracks: B1), S. Stewart* (tracks: A1 to A8)
  • Clarinet – Ed Hall* (tracks: B1), H. D'Amico* (tracks: A1 to A8)
  • Drums – C. Cole* (tracks: A1 to A8), J.C. Heard (tracks: B2 to B4), Specs Powell (tracks: B1, B5, B6)
  • Guitar – M. Bryan* (tracks: B5, B6), R. Palmieri* (tracks: B1), T. Grimes* (tracks: A1 to A8)
  • Liner Notes – Jacques Morgantini
  • Piano – C. Hart* (tracks: B5, B6, A1 to A3, A7), J. Jones* (tracks: B2 to B4), Johnny Guarnieri (tracks: A4 to A6, A8), L. Feather* (tracks: B1)
  • Tenor Saxophone – B. Johnson* (tracks: B2 to B4), Hawkins* (tracks: B1, A1 to A8), D. Byas* (tracks: B5, B6, A4 to A6, A8), W. Thomas* (tracks: A1 to A3, A7)
  • Trombone – R.D. Harris* (tracks: B2 to B4), T. Young* (tracks: B5, B6)
  • Trumpet – Buck Clayton (tracks: B1), C. Shavers* (tracks: A1 to A8), D. Gillespie* (tracks: B5, B6), G. Treadwell* (tracks: B2 to B4)

Notes

A1, A2, A3, A7 recorded November 14, 1944.
A4, A5, A6, A8 recorded November 21, 1944.

B1 recorded December 1, 1944.
B2, B3, B4 recorded March 20, 1946.
B5, B6 recorded 1945.

The labeling on the cover is different than it is on the record: while on the cover is written Face 1: Coleman Hawkins, on the record for the Face 1 there is written Cozy Cole.....(see also images)!

Other versions

Category Artist Title (Format) Label Category Country Year
33.009 Cozy Cole, Coleman Hawkins, J.C. Heard, T. Young* Cozy Cole, Coleman Hawkins, J.C. Heard, T. Young* - Jazz 44 ‎(LP, Comp) Black And Blue 33.009 France Unknown