media.bandthewest
» » William Parker & The Little Huey Creative Music Orchestra - Raincoat In The River Vol.1 / ICA Concert

William Parker & The Little Huey Creative Music Orchestra - Raincoat In The River Vol.1 / ICA Concert flac album

William Parker & The Little Huey Creative Music Orchestra - Raincoat In The River Vol.1 / ICA Concert flac album
  • Performer William Parker
  • Title Raincoat In The River Vol.1 / ICA Concert
  • Date of release 2001
  • Style Free Jazz
  • Other formats MMF AAC AC3 WMA AHX DXD MIDI
  • Genre Jazz
  • Size MP3 1721 mb
  • Size FLAC 1449 mb
  • Rating: 4.2
  • Votes: 681

Led by free jazz bassist William Parker, the Little Huey Creative Music Orchestra is an intermittently active New York-based unit that plays a kind of almost completely improvised big-band music. Th. ead Full Biography. Overview . Biography . Discography . Songs .

William Parker and the Little Huey Creative Music Orchestra – Response (Muezzin s Call). William Parker & The Little Huey Creative Music Orchestra – Spontaneous Mingus. William Parker & The Little Huey Creative Music Orchestra – Part Four. William Parker The Little Huey Creative Music Orchestra – Second Reading (cathedral In The Mountains). The Little Huey Creative Music Orchestra/William Parker – Five Rivers into One Teardrop Raincoat i. 0:34. William Parker & The Little Huey Creative Music Orchestra – Part One. 5:44. William Parker The Little Huey Creative Music Orchestra – Mysticism.

Recorded Live at the Tonic, NYC during Little Huey's 1999 Season on November 27 (1-1, 2-1, 2-6), September 4 (1-4, 2-5, 2-7), August 14 (2-2 to 2-4) and July 10 (1-2, 1-3).

William Parker and the Little Huey Creative Music Orchestra - First Reading (Dawn Song) 13:22. William Parker and the Little Huey Creative Music Orchestra - Invocation 00:31. William Parker, The Little Huey Creative Music Orchestra - 3 Steps To Noh Mountain: Laughing Eyes And Dancing Hearts 03:45. William Parker and the Little Huey Creative Music Orchestra - Willows (Can You Give Me Back My Life) 08:36. William Parker, The Little Huey Creative Music Orchestra - 3 Steps To Noh Mountain: Departure 05:08. William Parker, The Little Huey Creative Music Orchestra - 3 Steps To Noh Mountain: Soft Wheel 05:22.

Little Huey Creative Music Orchestra" INDEX 01 00:00:00 FILE "02 - The Bluest . av" WAVE TRACK 02 AUDIO TITLE "The Bluest J" PERFORMER "William Parker and The Little Huey Creative Music Orchestra" INDEX 01 00:00:00 FILE "03 - Voice Dance Kidd. wav" WAVE TRACK 03 AUDIO TITLE "Voice Dance Kidd" PERFORMER "William Parker and The Little Huey Creative Music Orchestra". INDEX 01 00:00:00 FILE "04 - Mayan Space Station.

01 - Huey Sees Light through a Leaf. 02 - Sunship for Dexter. 04 - The Painter and the Poet (feat M. Eneidi and G. Bendian). Sunrise in the Tone World (Disc 2. og. ue. Sunrise in the Tone World (Disc 2) - копия. Sunrise in the Tone World Combined.

Full list of William Parker albums, sorted by release date. You can also sort the list of albums by most recently added, year recorded (from most recent to first recorded), by views and by album name. Raincoat in the River, Vol. 1: Ica Concert.

I've daughter has the. Great. It I. And and canadian pharmacy leesburg fl the to works like from.

William Parker & Hamid Drake. View all on this site. You look like someone who appreciates good music.

Tracklist

Five Rivers Into One Teardrop
1 I Meditation For Two Voices 9:49
2 II Mountain / Mountain 10:00
3 III Anast Crossing The Lake Of Light 9:52
4 IV Raincoat In The River 19:41
5 V Painter's Celebration 9:58

Credits

  • Alto Saxophone – Ori Kaplan, Rob Brown
  • Alto Saxophone, Clarinet – Charles Waters
  • Baritone Saxophone – Dave Sewelson
  • Bass, Marimba, Shakuhachi, Bombarde, Leader, Producer – William Parker
  • Cello – Shiau-shu Yu
  • Drums [Trap Kit] – Andrew Barker, Guillermo E. Brown
  • Engineer [Location Recording] – Joe Hostetter
  • Mastered By – Jim Hemingway
  • Mixed By – Paul Geluso
  • Producer – Michael Ehlers
  • Soprano Saxophone, Tenor Saxophone – Darryl Foster
  • Trombone – Alex Lodico, Masahiko Kono, Steve Swell
  • Trumpet – Lewis Barnes, Richard Rodriguez
  • Trumpet, Flugelhorn – Roy Campbell, Jr*
  • Tuba – Dave Hofstra*
  • Vocals – Leena Conquest

Notes

Recorded Live on 23 February 2001 at the ICA Theatre, Boston, MA. Concert presented by Boston Creative Music Alliance.