media.bandthewest
» » Narimichi Kawabata + Daniel-Ben Pienaar - Valse Triste

Narimichi Kawabata + Daniel-Ben Pienaar - Valse Triste flac album

Narimichi Kawabata + Daniel-Ben Pienaar - Valse Triste flac album
  • Performer Narimichi Kawabata
  • Title Valse Triste
  • Date of release 2003
  • Style Classical
  • Other formats VOX DMF AIFF MP1 DXD MMF RA
  • Genre Classical
  • Size MP3 1832 mb
  • Size FLAC 1371 mb
  • Rating: 4.9
  • Votes: 453

Tracklist: 01. F. Kreisler: Liebesleid (3:20) 02. P. Tchaikovsky: Melodie N. (from "Souvenir d'un lieu cher", O. 2) (3:08) 03. Kreisler: Prelude and Allegro (in the style of G. Pugnani) (5:07) 04. M. Paradis: Sicilienne (3:05) 05. E. Granados: Spanish Dance (3:33) 06.

Daniel-Ben Pienaar is active as recitalist and chamber musician. He has a particular interest in early music and in the Viennese classics and early romantics, devoting his time to recording and performing, studying and reading, and teaching at the Royal Academy of Music in London, where he is piano professor and academic lecturer. Much of 1999-2005 was spent travelling extensively in Japan with the popular violinist Narimichi Kawabata, playing a diverse duo repertoire and solo recitals. A summer of immersion in . Bach in 2002 led to his first recording - two days of sessions devoted to The.

Daniel-Ben Pienaar was born in South Africa. He made his debut there at the age of 14, playing Liszt's E-flat concerto. After winning his country's National Youth Music Competition and the University of South Africa Overseas Music Scholarship Competition he studied at the Royal Academy of Music in London. There he won the Queen's Commendation in 1997 and held the Hodgson Fellowship in 1997/8.

Album title: Valse Triste. Category: Folk, World, & Country. Narimichi Kawabata + Daniel-Ben Pienaar - Valse Triste. The Five Lords - Ninna Nanna Triste (Lullaby In Blue). Jean Sibelius, Berliner Philharmoniker, Dirigent: Hans Rosbaud - Finlandia.

Kawabata Makoto - Hosanna Mantra MP3 album ZIP archive. 1550 downloads at 15 mb/s. Kawabata Makoto - Hosanna Mantra FLAC album ZIP archive. Acid Mothers Temple & The Melting Paraiso . Minstrel In The Galaxy. Kawabata Makoto - Kawabata Makoto Private Tapes Collection.

Valse triste (Sad Waltz), Op. 44, No. 1, is a short orchestral work by the Finnish composer Jean Sibelius. It was originally part of the incidental music he composed for his brother-in-law Arvid Järnefelt's 1903 play Kuolema (Death), but is far better known as a separate concert piece. Sibelius wrote six pieces for the 2 December 1903 production of Kuolema. The first was titled Tempo di valse lente - Poco risoluto.

Voice/Instrument: Pianoforte. Narimichi Kawabata Daniel-Ben Pienaar - Liebesleid. Composers' compositions. Wolfgang Amadeus Mozart. Mozart - Piano Sonatas - Daniel-Ben Pienaar. Ludwig van Beethoven. Beethoven - The 32 Piano Sonatas - Daniel-Ben Pienaar. Johann Sebastian Bach. Bach - The Well-Tempered Clavier - Daniel-Ben Pienaar.

PERFORMER "Narimichi Kawabata & Daniel-Ben Pienaar" ISRC JPVI00042920 INDEX 01 00:00:00 TRACK 02 AUDIO TITLE "Albeniz: Tango, O. 65-2" PERFORMER "Narimichi Kawabata & Daniel-Ben Pienaar" ISRC JPVI00042930 INDEX 00 14:13:43 FILE "02 - Albeniz- Tango, O. 65-2. wav" WAVE INDEX 01 00:00:00 TRACK 03 AUDIO TITLE "Veracini: Largo" PERFORMER "Narimichi Kawabata & Daniel-Ben Pienaar". 73 FILE "10 - Tchaikovsky- Valse sentimentale, O. 1-6. wav" WAVE INDEX 01 00:00:00 TRACK 11 AUDIO TITLE "Gounod: Ave Maria" PERFORMER "Narimichi Kawabata & Daniel-Ben Pienaar" ISRC JPVI00043020 INDEX 00 02:01:69 FILE "11 - Gounod- Ave Maria. wav" WAVE INDEX 01 00:00:00.

Daniel-Ben was born in South Africa, where he made his debut aged 14 playing Liszt’s First Piano Concerto  . His chamber music collaborations have included extensive travelling in Japan with violinist Narimichi Kawabata, Mozart and Brahms violin sonata cycles with Peter Shepard Skaerved, playing prominent London venues with violinist Giovanni Guzzo, performing Bach’s Art of Fugue on the harpsichord and chamber organ with Martin Knizia, and recording music for trumpet and piano (mostly arrangements of his own) on the Linn label. with Jonathan Freeman-Attwood. Interpretations where within the letter critically observed, a numinous potency breaks free’ - Gramophone.

Narimichi Kawabata & Daniel-Ben Pienaar - Ave Maria. 02 - Albeniz- Tango, O. flac 1. 0 MB. 10 - Tchaikovsky- Valse sentimentale, O. flac . 1 MB. booklet2. png 20. 4 KB. 06 - Ernst- The Last Rose of Summer. flac 3. 8 MB. 01 - Tartini- Sonata for violin in G minor 'Le trile de diable'. flac 6. 5 MB. 07 - Gluck- Melodie. 2 MB. 04 - Ponce- Estrellita. booklet4.